Regulamin | The Haves and the Have Nots | فيلم Vimaanam 2017 مترجم مشاهدة وتحميل فيلم الدراما Vimaanam 2017 HD مترجم اون لاين وتحميل مباشر
HD / Horror
The Endless (2017)[BRRip 1080p x264 by alE13 AC3][Napisy PL/Eng][Eng]


Dodał: alE13
Data dodania:
2018-08-09 07:50:06
Rozmiar: 8.32 GB
Ostat. aktualizacja:
2018-08-15 19:53:52
Seedów: 33
Peerów: 27


Komentarze: 1

http://i.imgur.com/iuf4XsX.jpg

http://www.imdb.com/title/tt3986820/
http://www.filmweb.pl/film/Endless-2017-795734

Plik zawiera sample.

reżyseria: Justin BensonAaron Moorhead
scenariusz: Justin Benson
gatunek: Horror,Sci-Fi
produkcja: USA
premiera: 21-04-2017
muzyka: Jimmy Lavalle
zdjęcia: Aaron Moorhead
czas: 1h 51 min

opis:

Two brothers return to the cult they fled from years ago to discover that the group's
beliefs may be more sane than they once thought.

Dwaj bracia uciekają z tajemniczej sekty. Dziesięć lat później, gdy wiodą nowe,
spokojniejsze życie, dostają zaszyfrowane nagranie od dawnej przyjaciółki. Pod
jego wpływem wracają do starego domu, aby uporządkować stare sprawy. Po przybyciu
okazuje się, że nie będzie to takie łatwe, szczególnie gdy staną się świadkami
przedziwnych wydarzeń, które udowadniają, że wierzenia członków kultu nie są aż
tak niedorzeczne jak sądzili.

http://i.imgur.com/X5XxJbF.jpg
http://i.imgur.com/dFobCv2.jpg
http://i.imgur.com/PBTIW0e.jpg
http://i.imgur.com/yWP1dH0.jpg

obsada:

Callie Hernandez, Justin Benson, Emily Montague

dane techniczne:

The Endless (2017)-alE13.mkv
Format : Matroska
Format version : Version 4 / Version 2
File size : 8.26 GiB
Duration : 1 h 51 min
Overall bit rate : 10.6 Mb/s
Movie name : The Endless (2017)-alE13
Encoded date : UTC 2018-08-09 05:23:40
Writing application : mkvmerge v8.1.0 ('Psychedelic Postcard') 64bit
Writing library : libebml v1.3.1 + libmatroska v1.4.2
Cover : Yes
Attachments : Cover.jpg

Video
ID : 1
Format : MPEG-4 Visual
Format settings : BVOP
Format settings, BVOP : Yes
Format settings, QPel : No
Format settings, GMC : No warppoints
Format settings, Matrix : Default (H.263)
Codec ID : V_MS/VFW/FOURCC / DX50
Codec ID/Hint : DivX 5
Duration : 1 h 51 min
Bit rate : 9 976 kb/s
Nominal bit rate : 6 896 kb/s
Width : 1 920 pixels
Height : 804 pixels
Display aspect ratio : 2.40:1
Frame rate mode : Constant
Frame rate : 24.000 FPS
Color space : YUV
Chroma subsampling : 4:2:0
Bit depth : 8 bits
Scan type : Progressive
Compression mode : Lossy
Bits/(Pixel*Frame) : 0.269
Stream size : 7.76 GiB (94%)
Title : The Endless (2017)-alE13
Writing library : DivX 2682
Default : Yes
Forced : No

Audio
ID : 2
Format : AC-3
Format/Info : Audio Coding 3
Codec ID : A_AC3
Duration : 1 h 51 min
Bit rate mode : Constant
Bit rate : 640 kb/s
Channel(s) : 6 channels
Channel positions : Front: L C R, Side: L R, LFE
Sampling rate : 48.0 kHz
Frame rate : 31.250 FPS (1536 SPF)
Bit depth : 16 bits
Compression mode : Lossy
Stream size : 510 MiB (6%)
Title : The Endless (2017)-alE13_AC3
Language : English
Service kind : Complete Main
Default : No
Forced : No

Text #1
ID : 3
Format : UTF-8
Codec ID : S_TEXT/UTF8
Codec ID/Info : UTF-8 Plain Text
Duration : 1 h 51 min
Bit rate : 49 b/s
Count of elements : 1321
Stream size : 40.4 KiB (0%)
Title : The Endless (2017)-alE13_Full
Language : English
Default : No
Forced : No

Text #2
ID : 4
Format : UTF-8
Codec ID : S_TEXT/UTF8
Codec ID/Info : UTF-8 Plain Text
Duration : 1 h 51 min
Bit rate : 52 b/s
Count of elements : 1420
Stream size : 42.3 KiB (0%)
Title : The Endless (2017)-alE13_SDH
Language : English
Default : No
Forced : No

Text #3
ID : 5
Format : UTF-8
Codec ID : S_TEXT/UTF8
Codec ID/Info : UTF-8 Plain Text
Duration : 1 h 46 min
Bit rate : 51 b/s
Count of elements : 1084
Stream size : 40.4 KiB (0%)
Title : The Endless (2017)-alE13
Language : Polish
Default : Yes
Forced : No

Menu
00:00:00.000 : en:00:00:00.000
00:06:27.833 : en:00:06:27.833
00:13:14.875 : en:00:13:14.875
00:20:40.875 : en:00:20:40.875
00:27:18.833 : en:00:27:18.833
00:34:47.500 : en:00:34:47.500
00:41:36.625 : en:00:41:36.625
00:47:47.000 : en:00:47:47.000
00:55:59.083 : en:00:55:59.083
01:02:50.583 : en:01:02:50.583
01:08:07.292 : en:01:08:07.292
01:16:44.250 : en:01:16:44.250
01:24:00.708 : en:01:24:00.708
01:31:21.042 : en:01:31:21.042
01:37:53.917 : en:01:37:53.917
01:47:15.875 : en:01:47:15.875

Lista plików Show/Hide [Pokaż/Ukryj]
Trackery
  • udp://tracker.coppersurfer.tk:6969/announce
  • http://tracker.torrentyorg.pl/announce
  • udp://tracker.leechers-paradise.org:6969/announce
  • udp://tracker.opentrackr.org:1337/announce
  • udp://tracker.ilibr.org:80/announce
  • http://tracker.devil-torrents.pl/announce
  • udp://inferno.demonoid.pw:3391/announce
  • udp://p4p.arenabg.ch:1337/announce

<< Poprzednia      Następna >>
1 - 1

Dodał: loko70 Data: 2018-08-10 21:02:48

dzieki ale i pozdrawiam twój wielbiciel

1 - 1
<< Poprzednia      Następna >>

Żaden z plików nie znajduje się na serwerze. Torrenty są własnością użytkowników. Administrator serwisu nie może ponieść konsekwencji za to co użytkownicy wstawiają, lub za to co czynią na stronie. Nie możesz używać tego serwisu do rozpowszechniania lub ściągania materiałów do których nie masz odpowiednich praw lub licencji. Użytkownicy odpowiedzialni są za przestrzeganie tych zasad.
Copyright © 2018 Ex-torrentyorgs-com.pl

Najlepsze strony Torrentowe